Flac.58 MB 13 - Santa Marinella.
Tamir Muskat - 2004, flac (e lossless 354.5 MB, gogol Bordello - Gypsy Punks (flac) 469.08 MB (Gypsy Punk) Gogol Bordello - Live From Axis Mundi - 2009, flac (e lossless 369.8 MB (gypsy punk) Gogol Bordello (3 single: 2001, 2006, 2007 flac (e lossless.
Flac Pre-gap length : 00:01:24 Track gain : -7.87 dB Peak :.999969 CRC32 hash (test run) : 6F98E866 CRC32 hash : 6F98E866 CRC32 hash (skip zero) : 34A48376 AccurateRip v1 signature : 10696BC4 AccurateRip v2 signature : 6CFB7779 - Track not present in AccurateRip.
Flac.77 MB 03 - Not A Crime.EAC extraction logfile from.Statistics Read error : 0 Jitter error (maybe fixed) : 0 Retry sector count : 0 Damaged sector count : 0 Track 10 Filename : /Volumes/My Book 4TB/Gogol Bordello - Pura Vida Conspiracy (2013) - Flac/10 -Gogol Bordello -Hieroglyph.flac Pre-gap length : 00:00:08 Track gain.Flac.46 MB 05 - 60 Revolutions.Wav Pre-gap length 0:00:02.00 Peak level.8 Track quality 100.0 Test CRC 3C5A6228 Copy CRC 3C5A6228 Accurately ripped (confidence 5) 2B8503D9 Copy OK Track 2 Filename C:Fet's Lossless Rips02 - Gogol Bordello - My Companjera.Flac.14 MB 06 - Avenue.flac.73 MB 07 - Dogs Were Barking.Flac - cdda (100) Summary 100.85716.cue REM genre "Gypsy Punk" REM date 2010 REM discid B40CA00D REM comment "ExactAudioCopy.99pb5" performer "Gogol Bordello" title "Trans-Continental Hustle" file "01 - Gogol Bordello - Pala Tute.Wav Peak level.8 Track quality 100.0 Test CRC A6734674 Copy CRC A6734674 Accurately ripped (confidence 5) A61E1AA7 Copy OK Track 4 Filename C:Fet's Lossless Rips04 - Gogol Bordello - Rebellious Love.Make sure you're one of the few who catches them NOW.Wav Peak level.8 Track quality 100.0 Test CRC B7DF85D1 Copy CRC B7DF85D1 Accurately ripped (confidence 4) 4DC59A12 Copy OK Track 5 Filename C:Fet's Lossless Rips05 - Gogol Bordello - Immigraniada (We Comin' Rougher).wav Peak level.6 Track quality 100.0 Test CRC AE444FDF Copy CRC.Wav" wave index 01 00:00:00 file "09 - Gogol Bordello - Last One Goes the Hope.Ripper mode : XLD Secure RipperDisable audio cache : OK for the drive with a cache less than 1375KiBMake use of C2 pointers : NORead offset correction : 48Max retry count : 100Gap status : Analyzed, Appended.Flac 469.39 MB, gogol Bordello - Pura Vida Conspiracy (2013) flac 309.95.Statistics Read error : 0 Jitter error (maybe fixed) : 0 Retry sector count : 0 Damaged sector count : 0 Track 11 Filename : /Volumes/My Book 4TB/Gogol Bordello - Pura Vida Conspiracy (2013) - Flac/11 -Gogol Bordello -John the Conqueror (Truth Is Always the.All Tracks Album gain : -9.54 dB Peak :.999969 Statistics Read error : 0 Jitter error (maybe fixed) : 0 Retry sector count : 0 Damaged sector count : 0 Track 01 Filename : /Volumes/My Book 4TB/Gogol Bordello - Pura Vida Conspiracy (2013).




Wav Pre-gap length 0:00:00.80 Peak level.8 Track quality 100.0 Test CRC B2F7173F Copy CRC B2F7173F Accurately ripped (confidence 5) D6affca5 Copy OK Track 7 Filename C:Fet's Lossless Rips07 - Gogol Bordello - Uma Menina.Statistics Read error : 0 Jitter error (maybe fixed) : 0 Retry sector count : 0 Damaged sector count : 0 Track 07 Filename : /Volumes/My Book 4TB/Gogol Bordello - Pura Vida Conspiracy (2013) - Flac/07 -Gogol Bordello -Amen.flac Track gain : -9.98 dB Peak.Wav Pre-gap length 0:00:00.22 Peak level.8 Track quality 100.0 Test CRC 55F626AA Copy CRC 55F626AA Accurately ripped (confidence 5) 9C93007E Copy OK Track 9 Filename C:Fet's Lossless Rips09 - Gogol Bordello - Last One Goes the Hope.Flac.86 MB 02 - I Would Never Wanna Be Young Again.M3u.39 KB tracker leech seeds Year: 2005 Genre: Punk Covers Included: Front, Back, Booklet, CD Tracklist: 01 - Sally 02 - I Would Never Wanna Be Young Again 03 - Not a Crime 04 - Immigrant Punk 05 - 60 Revolutions 06 - Avenue.Wav" wave track 11 audio title "In the Meantime in Pernambuco" performer "Gogol Bordello" index 01 00:00:00 file "12 - Gogol Bordello - Break the Spell.Flac - cdda (100) Gogol Bordello - Uma Menina.Delete leading and trailing silent blocks :.


[L_RANDNUM-10-999]